KeLBaYKuŞ Forum

Geri git   KeLBaYKuŞ Forum > Film & Dizi Download > Yerli Filmler


Yerli Filmler - Türk yapımı filmler


Cevapla
 
Seçenekler
  #1 (permalink)  
Alt 17.08.11, 00:30
MECR4 - ait Kullanıcı Resmi (Avatar)
Ergen Baykuş
 
Kaydolma: 25.06.11
Erkek
Mesajlar: 425
Teşekkürler: 0
Üyeye 0 kez teşekkür edildi
Standart I. Dünya Savaşı Renkli Arşiv Boxset | DVDRip | XviD | AC3 | MuLti


UyarıGörmek için lütfen buradan üye olunuz.

I. Dünya Savaşı, 20. yüzyılda dünya çapında yapılan iki savaştan birincisi olup dünya milletlerinin çoğunun yer aldığı 1914'ten 1918'e kadar süren küresel bir askeri çatışmadır. 28 Temmuz 1914 tarihinde Avrupa'da başlamış ve dünyanın dört bir yanındaki ülkelerin katılması ve diğer kıtalardaki sömürgelere de yayılması nedeniyle Dünya Savaşı ve Büyük Savaş olarak adlandırılmıştır. Dört yıl süren savaş, 1918 yılında sona ermiştir. I. Dünya Savaşı, Avrupa'da dört merkezi devlete karşı, Avrupa ve diğer kıtalarda bulunan yirmi beş devletin bulunduğu, o tarihe kadar görülmemiş ilk dünya savaşıdır.


Bölüm 1: Savasi Başlatan Suikast
UyarıGörmek için lütfen buradan üye olunuz.




Kod:
General
Complete name                    : C:\Users\Administrator\Desktop\bit belgesel\1. Dunya Savasi Renkli Arsiv Boxset DVDRip XViD AC3\1. Dunya Savasi Renkli Arsiv Blm 1 Savasi Başlatan Suikast DVDRip XViD AC3.avi
Format                           : AVI
Format/Info                      : Audio Video Interleave
File size                        : 333 MiB
Duration                         : 31mn 29s
Overall bit rate                 : 1 479 Kbps
Writing application              : VirtualDubMod 1.5.10.3 | www.virtualdub-fr.org || (build 2550/release)
Writing library                  : VirtualDubMod build 2550/release

Video
ID                               : 0
Format                           : MPEG-4 Visual
Format profile                   : Advanced Simple@L5
Format settings, BVOP            : 2
Format settings, QPel            : No
Format settings, GMC             : No warppoints
Format settings, Matrix          : Custom
Codec ID                         : XVID
Codec ID/Hint                    : XviD
Duration                         : 31mn 29s
Bit rate                         : 1 278 Kbps
Width                            : 672 pixels
Height                           : 384 pixels
Display aspect ratio             : 16:9
Frame rate                       : 25.000 fps
Color space                      : YUV
Chroma subsampling               : 4:2:0
Bit depth                        : 8 bits
Scan type                        : Progressive
Compression mode                 : Lossy
Bits/(Pixel*Frame)               : 0.198
Stream size                      : 288 MiB (86%)
Writing library                  : XviD 1.2.1 (UTC 2008-12-04)

Audio
ID                               : 1
Format                           : AC-3
Format/Info                      : Audio Coding 3
Mode extension                   : CM (complete main)
Codec ID                         : 2000
Duration                         : 31mn 29s
Bit rate mode                    : Constant
Bit rate                         : 192 Kbps
Channel(s)                       : 2 channels
Channel positions                : Front: L R
Sampling rate                    : 48.0 KHz
Bit depth                        : 16 bits
Compression mode                 : Lossy
Stream size                      : 43.3 MiB (13%)
Alignment                        : Split accross interleaves
Interleave, duration             : 40 ms (1.00 video frame)
Interleave, preload duration     : 500 ms

Bölüm 2: Batı Cephesi
UyarıGörmek için lütfen buradan üye olunuz.




Kod:
General
Complete name                    : C:\Users\Administrator\Desktop\bit belgesel\1. Dunya Savasi Renkli Arsiv Boxset DVDRip XViD AC3\1. Dunya Savasi Renkli Arsiv Blm 2 Bati Cephesi DVDRip XViD AC3.avi
Format                           : AVI
Format/Info                      : Audio Video Interleave
File size                        : 318 MiB
Duration                         : 31mn 15s
Overall bit rate                 : 1 425 Kbps
Writing application              : VirtualDubMod 1.5.10.3 | www.virtualdub-fr.org || (build 2550/release)
Writing library                  : VirtualDubMod build 2550/release

Video
ID                               : 0
Format                           : MPEG-4 Visual
Format profile                   : Advanced Simple@L5
Format settings, BVOP            : 2
Format settings, QPel            : No
Format settings, GMC             : No warppoints
Format settings, Matrix          : Custom
Codec ID                         : XVID
Codec ID/Hint                    : XviD
Duration                         : 31mn 15s
Bit rate                         : 1 223 Kbps
Width                            : 672 pixels
Height                           : 368 pixels
Display aspect ratio             : 16:9
Frame rate                       : 25.000 fps
Color space                      : YUV
Chroma subsampling               : 4:2:0
Bit depth                        : 8 bits
Scan type                        : Progressive
Compression mode                 : Lossy
Bits/(Pixel*Frame)               : 0.198
Stream size                      : 273 MiB (86%)
Writing library                  : XviD 1.2.1 (UTC 2008-12-04)

Audio
ID                               : 1
Format                           : AC-3
Format/Info                      : Audio Coding 3
Mode extension                   : CM (complete main)
Codec ID                         : 2000
Duration                         : 31mn 15s
Bit rate mode                    : Constant
Bit rate                         : 192 Kbps
Channel(s)                       : 2 channels
Channel positions                : Front: L R
Sampling rate                    : 48.0 KHz
Bit depth                        : 16 bits
Compression mode                 : Lossy
Stream size                      : 42.9 MiB (13%)
Alignment                        : Split accross interleaves
Interleave, duration             : 40 ms (1.00 video frame)
Interleave, preload duration     : 500 ms

Bölüm 3: Verdun Savaşı
UyarıGörmek için lütfen buradan üye olunuz.




Kod:
General
Complete name                    : C:\Users\Administrator\Desktop\bit belgesel\1. Dunya Savasi Renkli Arsiv Boxset DVDRip XViD AC3\1. Dunya Savasi Renkli Arsiv Blm 3 Verdun Savasi DVDRip XViD AC3.avi
Format                           : AVI
Format/Info                      : Audio Video Interleave
File size                        : 338 MiB
Duration                         : 33mn 9s
Overall bit rate                 : 1 426 Kbps
Writing application              : VirtualDubMod 1.5.10.3 | www.virtualdub-fr.org || (build 2550/release)
Writing library                  : VirtualDubMod build 2550/release

Video
ID                               : 0
Format                           : MPEG-4 Visual
Format profile                   : Advanced Simple@L5
Format settings, BVOP            : 2
Format settings, QPel            : No
Format settings, GMC             : No warppoints
Format settings, Matrix          : Custom
Codec ID                         : XVID
Codec ID/Hint                    : XviD
Duration                         : 33mn 9s
Bit rate                         : 1 224 Kbps
Width                            : 672 pixels
Height                           : 368 pixels
Display aspect ratio             : 16:9
Frame rate                       : 25.000 fps
Color space                      : YUV
Chroma subsampling               : 4:2:0
Bit depth                        : 8 bits
Scan type                        : Progressive
Compression mode                 : Lossy
Bits/(Pixel*Frame)               : 0.198
Stream size                      : 290 MiB (86%)
Writing library                  : XviD 1.2.1 (UTC 2008-12-04)

Audio
ID                               : 1
Format                           : AC-3
Format/Info                      : Audio Coding 3
Mode extension                   : CM (complete main)
Codec ID                         : 2000
Duration                         : 33mn 9s
Bit rate mode                    : Constant
Bit rate                         : 192 Kbps
Channel(s)                       : 2 channels
Channel positions                : Front: L R
Sampling rate                    : 48.0 KHz
Bit depth                        : 16 bits
Compression mode                 : Lossy
Stream size                      : 45.5 MiB (13%)
Alignment                        : Split accross interleaves
Interleave, duration             : 40 ms (1.00 video frame)
Interleave, preload duration     : 500 ms

Bölüm 4: Gökyüzünde Savaş
UyarıGörmek için lütfen buradan üye olunuz.




Kod:
General
Complete name                    : C:\Users\Administrator\Desktop\bit belgesel\1. Dunya Savasi Renkli Arsiv Boxset DVDRip XViD AC3\1. Dunya Savasi Renkli Arsiv Blm 4 Gokyuzunde Savas DVDRip XViD AC3.avi
Format                           : AVI
Format/Info                      : Audio Video Interleave
File size                        : 365 MiB
Duration                         : 32mn 8s
Overall bit rate                 : 1 587 Kbps
Writing application              : VirtualDubMod 1.5.10.3 | www.virtualdub-fr.org || (build 2550/release)
Writing library                  : VirtualDubMod build 2550/release

Video
ID                               : 0
Format                           : MPEG-4 Visual
Format profile                   : Advanced Simple@L5
Format settings, BVOP            : 2
Format settings, QPel            : No
Format settings, GMC             : No warppoints
Format settings, Matrix          : Custom
Codec ID                         : XVID
Codec ID/Hint                    : XviD
Duration                         : 32mn 8s
Bit rate                         : 1 386 Kbps
Width                            : 672 pixels
Height                           : 416 pixels
Display aspect ratio             : 1.615
Frame rate                       : 25.000 fps
Color space                      : YUV
Chroma subsampling               : 4:2:0
Bit depth                        : 8 bits
Scan type                        : Progressive
Compression mode                 : Lossy
Bits/(Pixel*Frame)               : 0.198
Stream size                      : 319 MiB (87%)
Writing library                  : XviD 1.2.1 (UTC 2008-12-04)

Audio
ID                               : 1
Format                           : AC-3
Format/Info                      : Audio Coding 3
Mode extension                   : CM (complete main)
Codec ID                         : 2000
Duration                         : 32mn 8s
Bit rate mode                    : Constant
Bit rate                         : 192 Kbps
Channel(s)                       : 2 channels
Channel positions                : Front: L R
Sampling rate                    : 48.0 KHz
Bit depth                        : 16 bits
Compression mode                 : Lossy
Stream size                      : 44.1 MiB (12%)
Alignment                        : Split accross interleaves
Interleave, duration             : 40 ms (1.00 video frame)
Interleave, preload duration     : 500 ms

Bölüm 5: Denizlerde Savaş
[IMG]
UyarıGörmek için lütfen buradan üye olunuz.
[/IMG]



Kod:
General
Complete name                    : C:\Users\Administrator\Desktop\bit belgesel\1. Dunya Savasi Renkli Arsiv Boxset DVDRip XViD AC3\1. Dunya Savasi Renkli Arsiv Blm 5 Denizlerde Savas DVDRip XViD AC3.avi
Format                           : AVI
Format/Info                      : Audio Video Interleave
File size                        : 337 MiB
Duration                         : 33mn 1s
Overall bit rate                 : 1 427 Kbps
Writing application              : VirtualDubMod 1.5.10.3 | www.virtualdub-fr.org || (build 2550/release)
Writing library                  : VirtualDubMod build 2550/release

Video
ID                               : 0
Format                           : MPEG-4 Visual
Format profile                   : Advanced Simple@L5
Format settings, BVOP            : 2
Format settings, QPel            : No
Format settings, GMC             : No warppoints
Format settings, Matrix          : Custom
Codec ID                         : XVID
Codec ID/Hint                    : XviD
Duration                         : 33mn 1s
Bit rate                         : 1 225 Kbps
Width                            : 672 pixels
Height                           : 368 pixels
Display aspect ratio             : 16:9
Frame rate                       : 25.000 fps
Color space                      : YUV
Chroma subsampling               : 4:2:0
Bit depth                        : 8 bits
Scan type                        : Progressive
Compression mode                 : Lossy
Bits/(Pixel*Frame)               : 0.198
Stream size                      : 289 MiB (86%)
Writing library                  : XviD 1.2.1 (UTC 2008-12-04)

Audio
ID                               : 1
Format                           : AC-3
Format/Info                      : Audio Coding 3
Mode extension                   : CM (complete main)
Codec ID                         : 2000
Duration                         : 33mn 1s
Bit rate mode                    : Constant
Bit rate                         : 192 Kbps
Channel(s)                       : 2 channels
Channel positions                : Front: L R
Sampling rate                    : 48.0 KHz
Bit depth                        : 16 bits
Compression mode                 : Lossy
Stream size                      : 45.4 MiB (13%)
Alignment                        : Split accross interleaves
Interleave, duration             : 40 ms (1.00 video frame)
Interleave, preload duration     : 500 ms

Bölüm 6: Çanakkale Savaşı
UyarıGörmek için lütfen buradan üye olunuz.




Kod:
General
Complete name                    : C:\Users\Administrator\Desktop\bit belgesel\1. Dunya Savasi Renkli Arsiv Boxset DVDRip XViD AC3\1. Dunya Savasi Renkli Arsiv Blm 6 Canakkale Savasi DVDRip XViD AC3.avi
Format                           : AVI
Format/Info                      : Audio Video Interleave
File size                        : 373 MiB
Duration                         : 32mn 49s
Overall bit rate                 : 1 587 Kbps
Writing application              : VirtualDubMod 1.5.10.3 | www.virtualdub-fr.org || (build 2550/release)
Writing library                  : VirtualDubMod build 2550/release

Video
ID                               : 0
Format                           : MPEG-4 Visual
Format profile                   : Advanced Simple@L5
Format settings, BVOP            : 2
Format settings, QPel            : No
Format settings, GMC             : No warppoints
Format settings, Matrix          : Custom
Codec ID                         : XVID
Codec ID/Hint                    : XviD
Duration                         : 32mn 49s
Bit rate                         : 1 385 Kbps
Width                            : 672 pixels
Height                           : 416 pixels
Display aspect ratio             : 1.615
Frame rate                       : 25.000 fps
Color space                      : YUV
Chroma subsampling               : 4:2:0
Bit depth                        : 8 bits
Scan type                        : Progressive
Compression mode                 : Lossy
Bits/(Pixel*Frame)               : 0.198
Stream size                      : 325 MiB (87%)
Writing library                  : XviD 1.2.1 (UTC 2008-12-04)

Audio
ID                               : 1
Format                           : AC-3
Format/Info                      : Audio Coding 3
Mode extension                   : CM (complete main)
Codec ID                         : 2000
Duration                         : 32mn 49s
Bit rate mode                    : Constant
Bit rate                         : 192 Kbps
Channel(s)                       : 2 channels
Channel positions                : Front: L R
Sampling rate                    : 48.0 KHz
Bit depth                        : 16 bits
Compression mode                 : Lossy
Stream size                      : 45.1 MiB (12%)
Alignment                        : Split accross interleaves
Interleave, duration             : 40 ms (1.00 video frame)
Interleave, preload duration     : 500 ms

Bölüm 7: Amerika Savaşta
UyarıGörmek için lütfen buradan üye olunuz.




Kod:
General
Complete name                    : C:\Users\Administrator\Desktop\bit belgesel\1. Dunya Savasi Renkli Arsiv Boxset DVDRip XViD AC3\1. Dunya Savasi Renkli Arsiv Blm 7 Amerika Savasta DVDRip XViD AC3.avi
Format                           : AVI
Format/Info                      : Audio Video Interleave
File size                        : 340 MiB
Duration                         : 32mn 9s
Overall bit rate                 : 1 479 Kbps
Writing application              : VirtualDubMod 1.5.10.3 | www.virtualdub-fr.org || (build 2550/release)
Writing library                  : VirtualDubMod build 2550/release

Video
ID                               : 0
Format                           : MPEG-4 Visual
Format profile                   : Advanced Simple@L5
Format settings, BVOP            : 2
Format settings, QPel            : No
Format settings, GMC             : No warppoints
Format settings, Matrix          : Custom
Codec ID                         : XVID
Codec ID/Hint                    : XviD
Duration                         : 32mn 9s
Bit rate                         : 1 277 Kbps
Width                            : 672 pixels
Height                           : 384 pixels
Display aspect ratio             : 16:9
Frame rate                       : 25.000 fps
Color space                      : YUV
Chroma subsampling               : 4:2:0
Bit depth                        : 8 bits
Scan type                        : Progressive
Compression mode                 : Lossy
Bits/(Pixel*Frame)               : 0.198
Stream size                      : 294 MiB (86%)
Writing library                  : XviD 1.2.1 (UTC 2008-12-04)

Audio
ID                               : 1
Format                           : AC-3
Format/Info                      : Audio Coding 3
Mode extension                   : CM (complete main)
Codec ID                         : 2000
Duration                         : 32mn 9s
Bit rate mode                    : Constant
Bit rate                         : 192 Kbps
Channel(s)                       : 2 channels
Channel positions                : Front: L R
Sampling rate                    : 48.0 KHz
Bit depth                        : 16 bits
Compression mode                 : Lossy
Stream size                      : 44.2 MiB (13%)
Alignment                        : Split accross interleaves
Interleave, duration             : 40 ms (1.00 video frame)
Interleave, preload duration     : 500 ms

Bölüm 8: Doğu Cephesi
UyarıGörmek için lütfen buradan üye olunuz.




Kod:
General
Complete name                    : C:\Users\Administrator\Desktop\bit belgesel\1. Dunya Savasi Renkli Arsiv Boxset DVDRip XViD AC3\1. Dunya Savasi Renkli Arsiv Blm 8 Dogu Cephesi DVDRip XViD AC3.avi
Format                           : AVI
Format/Info                      : Audio Video Interleave
File size                        : 328 MiB
Duration                         : 31mn 0s
Overall bit rate                 : 1 479 Kbps
Writing application              : VirtualDubMod 1.5.10.3 | www.virtualdub-fr.org || (build 2550/release)
Writing library                  : VirtualDubMod build 2550/release

Video
ID                               : 0
Format                           : MPEG-4 Visual
Format profile                   : Advanced Simple@L5
Format settings, BVOP            : 2
Format settings, QPel            : No
Format settings, GMC             : No warppoints
Format settings, Matrix          : Custom
Codec ID                         : XVID
Codec ID/Hint                    : XviD
Duration                         : 31mn 0s
Bit rate                         : 1 277 Kbps
Width                            : 672 pixels
Height                           : 384 pixels
Display aspect ratio             : 16:9
Frame rate                       : 25.000 fps
Color space                      : YUV
Chroma subsampling               : 4:2:0
Bit depth                        : 8 bits
Scan type                        : Progressive
Compression mode                 : Lossy
Bits/(Pixel*Frame)               : 0.198
Stream size                      : 283 MiB (86%)
Writing library                  : XviD 1.2.1 (UTC 2008-12-04)

Audio
ID                               : 1
Format                           : AC-3
Format/Info                      : Audio Coding 3
Mode extension                   : CM (complete main)
Codec ID                         : 2000
Duration                         : 31mn 0s
Bit rate mode                    : Constant
Bit rate                         : 192 Kbps
Channel(s)                       : 2 channels
Channel positions                : Front: L R
Sampling rate                    : 48.0 KHz
Bit depth                        : 16 bits
Compression mode                 : Lossy
Stream size                      : 42.6 MiB (13%)
Alignment                        : Split accross interleaves
Interleave, duration             : 40 ms (1.00 video frame)
Interleave, preload duration     : 500 ms

Bölüm 9: Sona Doğru
UyarıGörmek için lütfen buradan üye olunuz.




Kod:
General
Complete name                    : C:\Users\Administrator\Desktop\bit belgesel\1. Dunya Savasi Renkli Arsiv Boxset DVDRip XViD AC3\1. Dunya Savasi Renkli Arsiv Blm 9 Sona Dogru DVDRip XViD AC3.avi
Format                           : AVI
Format/Info                      : Audio Video Interleave
File size                        : 364 MiB
Duration                         : 34mn 24s
Overall bit rate                 : 1 479 Kbps
Writing application              : VirtualDubMod 1.5.10.3 | www.virtualdub-fr.org || (build 2550/release)
Writing library                  : VirtualDubMod build 2550/release

Video
ID                               : 0
Format                           : MPEG-4 Visual
Format profile                   : Advanced Simple@L5
Format settings, BVOP            : 2
Format settings, QPel            : No
Format settings, GMC             : No warppoints
Format settings, Matrix          : Custom
Codec ID                         : XVID
Codec ID/Hint                    : XviD
Duration                         : 34mn 24s
Bit rate                         : 1 278 Kbps
Width                            : 672 pixels
Height                           : 384 pixels
Display aspect ratio             : 16:9
Frame rate                       : 25.000 fps
Color space                      : YUV
Chroma subsampling               : 4:2:0
Bit depth                        : 8 bits
Scan type                        : Progressive
Compression mode                 : Lossy
Bits/(Pixel*Frame)               : 0.198
Stream size                      : 314 MiB (86%)
Writing library                  : XviD 1.2.1 (UTC 2008-12-04)

Audio
ID                               : 1
Format                           : AC-3
Format/Info                      : Audio Coding 3
Mode extension                   : CM (complete main)
Codec ID                         : 2000
Duration                         : 34mn 24s
Bit rate mode                    : Constant
Bit rate                         : 192 Kbps
Channel(s)                       : 2 channels
Channel positions                : Front: L R
Sampling rate                    : 48.0 KHz
Bit depth                        : 16 bits
Compression mode                 : Lossy
Stream size                      : 47.3 MiB (13%)
Alignment                        : Split accross interleaves
Interleave, duration             : 40 ms (1.00 video frame)
Interleave, preload duration     : 500 ms

Bölüm 10: Savaşı Bitiren Devrim
UyarıGörmek için lütfen buradan üye olunuz.




Kod:
General
Complete name                    : C:\Users\Administrator\Desktop\bit belgesel\1. Dunya Savasi Renkli Arsiv Boxset DVDRip XViD AC3\1. Dunya Savasi Renkli Arsiv Blm 10 Savasi Bitiren Devrim DVDRip XViD AC3.avi
Format                           : AVI
Format/Info                      : Audio Video Interleave
File size                        : 340 MiB
Duration                         : 32mn 8s
Overall bit rate                 : 1 480 Kbps
Writing application              : VirtualDubMod 1.5.10.3 | www.virtualdub-fr.org || (build 2550/release)
Writing library                  : VirtualDubMod build 2550/release

Video
ID                               : 0
Format                           : MPEG-4 Visual
Format profile                   : Advanced Simple@L5
Format settings, BVOP            : 2
Format settings, QPel            : No
Format settings, GMC             : No warppoints
Format settings, Matrix          : Custom
Codec ID                         : XVID
Codec ID/Hint                    : XviD
Duration                         : 32mn 8s
Bit rate                         : 1 278 Kbps
Width                            : 672 pixels
Height                           : 384 pixels
Display aspect ratio             : 16:9
Frame rate                       : 25.000 fps
Color space                      : YUV
Chroma subsampling               : 4:2:0
Bit depth                        : 8 bits
Scan type                        : Progressive
Compression mode                 : Lossy
Bits/(Pixel*Frame)               : 0.198
Stream size                      : 294 MiB (86%)
Writing library                  : XviD 1.2.1 (UTC 2008-12-04)

Audio
ID                               : 1
Format                           : AC-3
Format/Info                      : Audio Coding 3
Mode extension                   : CM (complete main)
Codec ID                         : 2000
Duration                         : 32mn 8s
Bit rate mode                    : Constant
Bit rate                         : 192 Kbps
Channel(s)                       : 2 channels
Channel positions                : Front: L R
Sampling rate                    : 48.0 KHz
Bit depth                        : 16 bits
Compression mode                 : Lossy
Stream size                      : 44.1 MiB (13%)
Alignment                        : Split accross interleaves
Interleave, duration             : 40 ms (1.00 video frame)
Interleave, preload duration     : 500 ms









PARTLAR UYUMLUDUR, ŞİFRE YOKTUR.


Wuplaod - Üye olmak için Resime Tıklayın.
UyarıGörmek için lütfen buradan üye olunuz.

Kod:
http://www.wupload.com/file/97551031/1. Dunya Savasi Renkli Arsiv Boxset DVDRip XViD AC3.part1.rar
http://www.wupload.com/file/97550949/1. Dunya Savasi Renkli Arsiv Boxset DVDRip XViD AC3.part2.rar
http://www.wupload.com/file/97551026/1. Dunya Savasi Renkli Arsiv Boxset DVDRip XViD AC3.part3.rar
http://www.wupload.com/file/97554625/1. Dunya Savasi Renkli Arsiv Boxset DVDRip XViD AC3.part4.rar
http://www.wupload.com/file/97543193/1. Dunya Savasi Renkli Arsiv Boxset DVDRip XViD AC3.part5.rar
http://www.wupload.com/file/97543218/1. Dunya Savasi Renkli Arsiv Boxset DVDRip XViD AC3.part6.rar
http://www.wupload.com/file/97554586/1. Dunya Savasi Renkli Arsiv Boxset DVDRip XViD AC3.part7.rar
http://www.wupload.com/file/97531330/1. Dunya Savasi Renkli Arsiv Boxset DVDRip XViD AC3.part8.rar

Fileserve - Üye olmak için Resime Tıklayın.
UyarıGörmek için lütfen buradan üye olunuz.

Kod:
http://www.fileserve.com/file/9krN5vZ/1. Dunya Savasi Renkli Arsiv Boxset DVDRip XViD AC3.part1.rar
http://www.fileserve.com/file/8gRENfb/1. Dunya Savasi Renkli Arsiv Boxset DVDRip XViD AC3.part2.rar
http://www.fileserve.com/file/EXmppsk/1. Dunya Savasi Renkli Arsiv Boxset DVDRip XViD AC3.part3.rar
http://www.fileserve.com/file/eJyCS4x/1. Dunya Savasi Renkli Arsiv Boxset DVDRip XViD AC3.part4.rar
http://www.fileserve.com/file/zwCudjf/1. Dunya Savasi Renkli Arsiv Boxset DVDRip XViD AC3.part5.rar
http://www.fileserve.com/file/SqsKQK9/1. Dunya Savasi Renkli Arsiv Boxset DVDRip XViD AC3.part6.rar
http://www.fileserve.com/file/dtaRn6c/1. Dunya Savasi Renkli Arsiv Boxset DVDRip XViD AC3.part7.rar
http://www.fileserve.com/file/zd9QbGN/1. Dunya Savasi Renkli Arsiv Boxset DVDRip XViD AC3.part8.rar

Uploaded - Üye olmak için Resime Tıklayın.
UyarıGörmek için lütfen buradan üye olunuz.

Kod:
http://ul.to/file/s9u9bsvg/1.%20Dunya%20Savasi%20Renkli%20Arsiv%20Boxset%20DVDRip%20XViD%20AC3.part1.rar
http://ul.to/file/n1x27gaa/1.%20Dunya%20Savasi%20Renkli%20Arsiv%20Boxset%20DVDRip%20XViD%20AC3.part2.rar
http://ul.to/file/xia1m4gy/1.%20Dunya%20Savasi%20Renkli%20Arsiv%20Boxset%20DVDRip%20XViD%20AC3.part3.rar
http://ul.to/file/bh6c40xh/1.%20Dunya%20Savasi%20Renkli%20Arsiv%20Boxset%20DVDRip%20XViD%20AC3.part4.rar
http://ul.to/file/7vpnsum8/1.%20Dunya%20Savasi%20Renkli%20Arsiv%20Boxset%20DVDRip%20XViD%20AC3.part5.rar
http://ul.to/file/umri3p21/1.%20Dunya%20Savasi%20Renkli%20Arsiv%20Boxset%20DVDRip%20XViD%20AC3.part6.rar
http://ul.to/file/4rk45xgx/1.%20Dunya%20Savasi%20Renkli%20Arsiv%20Boxset%20DVDRip%20XViD%20AC3.part7.rar
http://ul.to/file/qcnsdpuh/1.%20Dunya%20Savasi%20Renkli%20Arsiv%20Boxset%20DVDRip%20XViD%20AC3.part8.rar

Uploadstation - Üye olmak için Resime Tıklayın.
UyarıGörmek için lütfen buradan üye olunuz.

Kod:
http://www.uploadstation.com/file/kSMPZuv/1._Dunya_Savasi_Renkli_Arsiv_Boxset_DVDRip_XViD_AC3.part1.rar
http://www.uploadstation.com/file/Wjn3ZCE/1._Dunya_Savasi_Renkli_Arsiv_Boxset_DVDRip_XViD_AC3.part2.rar
http://www.uploadstation.com/file/reY2RP9/1._Dunya_Savasi_Renkli_Arsiv_Boxset_DVDRip_XViD_AC3.part3.rar
http://www.uploadstation.com/file/ktjgass/1._Dunya_Savasi_Renkli_Arsiv_Boxset_DVDRip_XViD_AC3.part4.rar
http://www.uploadstation.com/file/kpwcYft/1._Dunya_Savasi_Renkli_Arsiv_Boxset_DVDRip_XViD_AC3.part5.rar
http://www.uploadstation.com/file/GZamSNb/1._Dunya_Savasi_Renkli_Arsiv_Boxset_DVDRip_XViD_AC3.part6.rar
http://www.uploadstation.com/file/w6RmTT2/1._Dunya_Savasi_Renkli_Arsiv_Boxset_DVDRip_XViD_AC3.part7.rar
http://www.uploadstation.com/file/GQ47b2K/1._Dunya_Savasi_Renkli_Arsiv_Boxset_DVDRip_XViD_AC3.part8.rar
Alıntı ile Cevapla
Sponsor
Cevapla


Seçenekler




© 2013 KeLBaYKuŞ Forum | AtEsH
Telif Hakları vBulletin v3.8.4 - ©2000-2020 - Jelsoft Enterprises Ltd.
Search Engine Optimization by vBSEO 3.2.0'e Aittir.
Açılış Tarihi: 29.08.2006